#TITLE:A New Breed of Savior by young editer;
#ARTIST:Inferi;
#FILE:04 A New Breed of Savior.mp3;
#BPM:90.050;
#GAP:-1218;
#SAMPLESTART:32.000;
#SAMPLELENGTH:12.000;
#CDTITLE:Nepex-Chart.bmp;
#CHANGEBPM:112.000=180.400,256.000=179.980,2732.000=180.200,2860.000=90.100,2924.000=179.980,3436.000=89.990,3464.000=92.100,3466.000=94.000,3468.000=179.980,3472.000=179.980,3568.000=178.800,3584.000=179.980;
#SINGLE:MANIAC:13:
00008268
`600000000000000000000000400000000000000000000000800000000000000000000000200000000000000000000000600040000000000000000000800000000000000000000000400000000000000000000000200000000000000000000000'
{8000000060408020600000002000000040000000200000008000000040000000}
`800020000000000000000000600000000000000000000000200000000000000000000000800000000000000000000000400000000000800000000000200000000000600000000000400000000000200000000000800000000000400000000000'
86482642
`800060000000000000000000400000000000000000000000800000000000000000000000200000000000000000000000600000000000000000000000400000006000000020000000800000000000000000000000200000000000000000000000'
`800000000000000000000000400000000000000000000000800000000000000000000000600000000000000000000000200040000000000000000000800000000000000000000000400000000000000000000000200000000000000000000000'
(9!9009A!A00A1!10019!9009)
3!30408040
(8!8030B!B00B1!1010<8B!B>00B)
3!30408043
`<8!8B!B>00000000000000000000000000000000000000000000000800000000000000000000000800000002000000080000000A00000000000000000000000000000000000000000000000800000000000000000000000000000000000B00000000000'
1!10806080
(6!6010A!A06A28424828)
(1!100080006!66008010)
`B!B00000000000000000000000000000000000000000000000000000000000000000000000200000008000B000200000007!800000000000000000000000000000000000000000000000400000000000000000000000800000000000000000000000'
[9010B070A0109030701030A0]
[10309010B010A090701090B0]
[A010B030A0703090B0A070A0]
[3010A0304080628428646464]
[3!300300B010A0B0309070A010]
[90A03070A0B0309070103090]
[B010A0703090B010A0B0A070]
[B08280406020806020804020]
[9!900900B09010A0B010A03090]
[70107030B070646400828200]
`B!B00000000000000000000000000000000000B00000000000A000000000000000100000000000000030000000000000007000000000000000A000000000000000100000000000000030000000000000009000000000000000B000000000000000'
[10B0A030907010B0A070A010]
[3090B010A0B0309070A0B010]
[A01030907000648264826482]
[B!B000B070A0B03090B010A070]
[30A0703090B0208040602080]
[608040A0309070A0B0309070]
[10B03070A03090B01070A030]
[90B0A070B03090B0A01030B0]
[902420806420804060206080]
[1!100100B090A0B0309010B0A0]
[7030103090B01070A0B03090]
[B01070A0703090A070A03090]
[B08280406020806080402080]
[<61>06060208040208040806020]
[806080402080<61>06020700020]
[100000<83>08080100060<83>00040]
[<83>0A010304020806020B03070]
[A06040208060<81>04080202080]
`A!A00000000000000000000000000000000000A00000000000<6!61!1>00000000000000000000000<61>00000000000000000000000600000008000000060000000800000006000000080000000200000004000000020000000400000002000000040000000'
[828282646464A01030B00000]
[B01030A010309070B01070A0]
[3090B010A0703090B010B030]
[9070A07030A0703090B01070]
[A0703090B01070309070A030]
[901070103090B01070309070]
[A01030846864A010B000A000]
(682482429000B000)
[402080608080100000608020]
[40202070006290A040200000]
(88448866A0006622)
(8844300044882266)
[706260408280406020804040]
[602020806060802040208080]
[406060208080402080604040]
[802020604040802040900000]
`00000000000000000000000060000000000080000000000020000000000040000000000080000000000020000000000090000000000000000000000000000000B000000000000000200000000000000080000000000000008000000000000000'
[406060208080204040206060]
[8020208!800080B000A0602020]
`800000000000000040000000000000004000000000000000600000000000000080000000000000008000000000000000200000000000000040000000000000004000000000000000600000000000200000000000800000000000400000000000'
[602080402860408040206060]
[408080204040208060802020]
[604040802020608020406060]
[2080804060602080601!101000]
`00000000000000000000000040000000000020000000000080000000000060000000000020000000000080000000000010000000000000000000000000000000B000000000000000800000000000000020000000000000002000000000000000'
[604040802020806060804040]
[2080802!200020B000A0602020]
[804040608080204040828284]
[2862846868681070A0B00000]
[703070B010A070309010A030]
[90B010703090B0A0703090B0]
[10A070309010A03090107030]
[90107030B070A0B03090B010]
[A0B0A070A03090B01070A0B0]
[3090B0848268B0307000A000]
(682482429000B000)
[402080608080100000608020]
[40202070006290A040200000]
(88448866A0006622)
(8844300044882266)
[706260408280406020804040]
[602020806060802040208080]
[406060208080402080604040]
[802020604040802040900000]
[006020804620804060208080]
[406060208080204040206060]
[8020208!800080B000A0602020]
[804040608080204040626080]
[204080208040806080402020]
[806060408080406020604040]
[208080604040208060802020]
[4060608020204060207!707000]
`00000000000000000000000080000000000040000000000060000000000020000000000080000000000060000000000070000000000000000000000000000000A000000000000000600000000000000040000000000000004000000000000000'
[208080604040602020608080]
[4060602!200200A000B0806060]
[402020804040806060200000]
(842828628482B000)
[A010A09070B03070A0307010]
`90000000000000003000000000000000B000000000000000800000004000000080000000400000000000000000000000200000006000000020000000600000000000000000000000A!A00000000000000000000000000000000000A00000000000'
[10A0B0309070A0B030901070]
[A0B03090B0107030A0109030]
[70A0B0309010B0A010A03090]
[7010A06842684268429!900900]
[1070309070A0B0309070A0B0]
[109030106020804020806020]
[7030901070309070B070A030]
[90B01070A03090B010A07030]
[90B010A0703090B0A0B08280]
[4028208060206040801!100100]
[90A03090107010A03070A0B0]
[30901070A0B03090A0B010A0]
[703090B010A0B030A0B02480]
[406080208060204020808080]
[8080802!200200404040404040]
`6!600000000000000000000000600000000000000000000000800000000000200000000000600000000000800000000000200000000000800000000000600000000000400000000000800000000000000080000000000000008000000000000000'
[8080804!400400606060606060]
[8!800800428060208040202020]
[2020206!600600404040404040]
`2!2000000000000000000000002000000000000000000000006000000020000000800000000000000060000000400000003000000000000000A000000000000000B000000000000000600000000000200000000000800000000000400000000000'
(2828628482628684)
(826468486284<83>000)
10703090
B0<81>39B<81>0
703090B0
(1000828042408284)
(2862848264248268)
(6286882244882428)
(6848684862868268)
(4828446622886482)
(8428248242848682)
(6828662288448268)
(4862428482628486)
(8268446860828462)
(8428626824824060)
`20000000000000000000000080000000000000000000000040000000000000006!60000000000000000000000000000000000000000000000060000000000000000000000000000000400000000000200000000000800000000000200000000000'
(4828262842862868)
(462!20000020046284)
(2864682428646284)
(2864682428648284)
(6268628482642482)
(8482686284248040)
(68402080624!402040)
(2480406024804080)
(28604020468!80802!20)
(20646!600084382482)
(6424824284826286)
(828428662!20204802)
`600000000000000040000000000000008000000000000000200000000000000060000000000000002000000000000000800000000000000040000000000000006000000000000000400000000000800000000000200000000000800000000000'
`4000000000006000000000002000000000008000000000006!600000000000000000000000400000000000200000000000400000000000800000000000300000000000800000000000200000000000000060000000000000004000000000000000'
[602080608040204060202080]
`2000000000000000600000000000000040000000000000002!200000000000000000000000800000000000600000000000800000000000000020000000400000000000600000000000400000000000000020000000000000008000000000000000'
`400000000000000080000000000000002000000000000000400000000000000080000000000000002000000000000000600000000000800000000000200000000000000000000000400000000000200000000000800000000000200000000000'
(843!3<83>6!607!77601!119!9646)
(20649010A0B09070)
(00307!706267246828)
(6284826848628684)
(86826!602483864!4082)
(B08!8420762!20846086)
(80B!B0B09!9090<27!7>0<76!6>028)
(304!4680B28!80627084)
(2!20B!BB009!9900<27!7>73!3348)
(402!26403842862842)
(84A!A<83>4!403!3300<49!9>97!7<81>64)
(8268286424828684)
(826828628684A!A000)
A1937!7070
10B3A19!90
9BA17!7007
B091AB<8!8B!B>0
<8B>A103090
(1000700068249010)
A37AB197
(B0A0B82864829!9091)
(A19!9009109A37B!B0BA)
(397!7007309137<6!61!1>0<61>9)
{10000000300000009000000070000000A0000000402080607000300090001000}
{A000B000A00010009000A000B000A00080206040A00070003000400080002000}
(8482682862868482)
(6262848284262864)
(8284828428248684)
(8268286286848268)
(2426286286848284)
(8268242624286848)
(6862868264242482)
(8462868428286286)
(8486826828642628)
(6286848284248286)
(8462868428248242)
(8684824262868428)
(2482428482842824)
(2862868268286464)
(8284282484646482)
(6464826464643666)
(667!7700A!AA44443!3388)
(881!1100B!BB88883!3344)
(449!9900B!BB8280B070)
(30907010B0706666)
(66A!AA007!7722229!9<83>22)
(229!9900B!BB84802622)
(2222222222222222)
(223!33001!1100A!AA3862)
(8482462682864248)
(2846286848268286)
(4248284826828628)
(4826284262864286)
(2868482642482842)
(4626828628482642)
(4626828642462828)
(2064826424628!8040)
264!400426
{40000000600000002!20000000200060204!40008000<61>00000007000000000000000}
[B010A0B0309070A01090A030]
[70A0B0309070103090B010A0]
[703090B010A0B0A070B08280]
[4064208060208040209!900900]
[B09010A0B010A03090701070]
`3000000000000000B0000000000000007000000000000000600000004000000060000000400000000000000000000000800000002000000080000000200000000000000000000000B!B00000000000000000000000000000000000B00000000000'
[A0103070A0103090B010B0A0]
[30907010B0A070A0103090B0]
[10A0B0309070A0B010A01030]
[9070A0B0A0907030A0B010A0]
[70A0B03090B010A07030A070]
`30000000000000009000000000000000B000000000000000200000000000800000000000400000000000600000000000A00000000000000010000000000000007000000000000000300000000000000000000000000000000000000000000000'
[202040208040806020806080]
[402080<61>06020700020100000]
[<83>08080100060<83>00040<83>0A010]
[304020806020B03070A06040]
`200000000000000080000000000000006000000000000000<81>00000000000000040000000000000008000000000000000200000000000000020000000000000008000000000000000A!A00000000000000000000000000000000000A00000000000'
[<6!61!1>00<61>00686868242424828282]
[646464A01030B00000B01030]
[A010309070B01070A03090B0]
[10A0703090B010B0309070A0]
[7030A0703090B01070A07030]
[90B01070309070A030901070]
[103090B01070309070A01030]
`800000004000000060000000800000006000000040000000A0000000000000001000000000000000B0000000000000000000000000000000A0000000000000000000000000000000600000000000800000000000200000000000400000000000'
`800000000000200000000000400000000000200000000000900000000000000000000000000000000000000000000000B00000000000000000000000000000000000000000000000400000000000000020000000000000008000000000000000'
[608080100000608020402020]
`7000000000000000000000000000000060000000200000009000000000000000A0000000000000004000000000000000200000000000000000000000000000000000000000000000800000000000800000000000400000000000400000000000'
(8866A00066228844)
`300000000000000000000000000000000000000000000000400000000000400000000000800000000000800000000000200000000000200000000000600000000000600000000000700000000000000060000000200000006000000000000000'
[408280406020804040602020]
[806060802040208080406060]
[208080402080604040802020]
`600000000000000040000000000000004000000000000000800000000000000020000000000000004000000000000000900000000000000000000000000000000000000000000000000000000000000000000000600000000000800000000000'
`20000000000040000000000080000000000020000000000090000000000000000000000000000000B000000000000000200000000000000080000000000000008000000000000000400000000000000060000000000000006000000000000000'
[208080204040206060802020]
[8!800080B000A0602020804040]
`600000000000000080000000000000008000000000000000200000000000000040000000000000004000000000000000600000000000200000000000800000000000400000000000600000000000000020000000000000008000000000000000'
[402860408040206060408080]
[204040208060802020604040]
[802020608020406060208080]
`4000000000000000600000000000000060000000000000002000000000000000800000000000000060000000000000001!100000000000000000000000100000000000000000000000000000000000000000000000800000000000200000000000'
`80000000000040000000000020000000000080000000000030000000000000000000000000000000B000000000000000200000000000000080000000000000008000000000000000400000000000000060000000000000006000000000000000'
[208080204040206060802020]
[8!800080B000A0602020804040]
`600000000000000080000000000000008000000000000000200000000000000040000000000000004000000000000000300000000000000000000000000000000000000000000000600000000000800000000000600000000000800000000000'
(24249!900090000000)
;
#SINGLE:SMANIAC:13:
00008268
`600000000000000000000000400000000000000000000000800000000000000000000000200000000000000000000000600040000000000000000000800000000000000000000000400000000000000000000000200000000000000000000000'
{8000000060408020600000002000000040000000200000008000000040000000}
`800020000000000000000000600000000000000000000000200000000000000000000000800000000000000000000000400000000000800000000000200000000000600000000000400000000000200000000000800000000000400000000000'
86482642
`800060000000000000000000400000000000000000000000800000000000000000000000200000000000000000000000600000000000000000000000400000006000000020000000800000000000000000000000200000000000000000000000'
`800000000000000000000000400000000000000000000000800000000000000000000000600000000000000000000000200040000000000000000000800000000000000000000000400000000000000000000000200000000000000000000000'
(9!9009A!A00A1!10019!9009)
3!30408040
(8!8030B!B00B1!1010<8B!B>00B)
3!30408043
`<8!8B!B>00000000000000000000000000000000000000000000000800000000000000000000000800000002000000080000000A00000000000000000000000000000000000000000000000800000000000000000000000000000000000B00000000000'
1!10806080
(6!6010A!A06A28424828)
(1!100080006!66008010)
`B!B00000000000000000000000000000000000000000000000000000000000000000000000200000008000B000200000007!800000000000000000000000000000000000000000000000400000000000000000000000800000000000000000000000'
[9010B070A0109030701030A0]
[10309010B010A090701090B0]
[A010B030A0703090B0A070A0]
[3010A0304080628428646464]
[3!300300B010A0B0309070A010]
[90A03070A0B0309070103090]
[B010A0703090B010A0B0A070]
[B08280406020806020804020]
[9!900900B09010A0B010A03090]
[70107030B070646482646482]
`B!B00000000000000000000000000000000000B00000000000A000000000000000100000000000000030000000000000007000000000000000A000000000000000100000000000000030000000000000009000000000000000B000000000000000'
[10B0A030907010B0A070A010]
[3090B010A0B0309070A0B010]
[A01030907000648264826482]
[B!B000B070A0B03090B010A070]
[30A0703090B0208040902080]
[608040A0309070A0B0309070]
[10B03070A03090B01070A030]
[90B0A070B03090B0A01030B0]
[902420806420804060206080]
[1!100100B090A0B0309010B0A0]
[7030103090B01070A0B03090]
[B01070A0703090A070A03090]
[B08280406020806080402080]
[<61>06060208040208040806020]
[806080402080<61>06020700020]
[100000<83>08080100060<83>00040]
[<83>0A010304020806020B03070]
[A06040208060<81>04080202080]
`A!A00000000000000000000000000000000000A00000000000<6!61!1>00000000000000000000000<61>00000000000000000000000600000008000000060000000800000006000000080000000200000004000000020000000400000002000000040000000'
[828282646464A01030B00000]
[B01030A010309070B01070A0]
[3090B010A0703090B010B030]
[9070A07030A0703090B01070]
[A0703090B01070309070A030]
[901070103090B01070309070]
[A01030846864A010B0000000]
(B82482429000B000)
[402080608080100000608020]
[40202070006290A040200000]
(88448866A0006622)
(8844300044882266)
[706260408280406020804040]
[902020806060702040208080]
[106060208080102080604040]
[902020604040902040900000]
`70000000000000000000000060000000000080000000000020000000000040000000000080000000000020000000000090000000000000000000000000000000B000000000000000200000000000000080000000000000008000000000000000'
[106060208080304040206060]
[7020208!800080B000A0602020]
`900000000000000040000000000000004000000000000000600000000000000080000000000000008000000000000000300000000000000040000000000000004000000000000000600000000000200000000000800000000000400000000000'
[602080402860408040206060]
[108080204040308060802020]
[904040802020B08020406060]
[1080804060601080601!101000]
`30000000000000000000000040000000000020000000000080000000000060000000000020000000000080000000000010000000000000000000000000000000B000000000000000800000000000000020000000000000002000000000000000'
[904040802020706060804040]
[3080802!200020B000A0602020]
[904040608080304040828284]
[2862846868681070A0B00000]
[703070B010A070309010A030]
[90B010703090B0A0703090B0]
[10A070309010A03090107030]
[90107030B070A0B03090B010]
[A0B0A070A03090B01070A0B0]
[3090B0848268B0307000A000]
(682482429000B000)
[402080608080100000608020]
[40202070006290A040200000]
(88448866A0006622)
(8844300044882266)
[706260408280406020804040]
[902020806060702040208080]
[106060208080B02080604040]
[902020604040902040900000]
[1060208046209020B0208080]
[106060208080304040206060]
[7020208!800080B000A0602020]
[904040608080304040626080]
[204080208040806080402020]
[706060408080106020604040]
[308080604040308060802020]
[7060608020207060207!707000]
`B0000000000000000000000080000000000040000000000060000000000020000000000080000000000060000000000070000000000000000000000000000000A000000000000000600000000000000040000000000000004000000000000000'
[308080604040902020608080]
[1060602!200200A000B0806060]
[702020804040A06060100000]
(842828628482B000)
[A010A09070B03070A0307010]
`90000000000000003000000000000000B000000000000000800000002000000080000000200000006000000040000000800000002000000080000000200000006000000040000000A!A00000000000000000000000000000000000A00000000000'
[10A0B0309070A0B030901070]
[A0B03090B0107030A0109030]
[70A0B0309010B0A010A03090]
[7010A06842684268429!900900]
[1070309070A0B0309070A0B0]
[109030106020904020806020]
[7030901070309070B070A030]
[90B01070A03090B010A07030]
[90B010A0703090B0A0B08280]
[4028208060206040801!100100]
[90A03090107010A03070A0B0]
[30901070A0B03090A0B010A0]
[703090B010A0B030A0B02480]
[406080208060204020606060]
[9060B02!209200104070401040]
`3!600000000000000000000000600000001000000000000000800000000000200000000000600000000000800000000000100000000000800000000000600000000000400000000000800000000000000090000000000000008000000000000000'
[A080904!40A400B0603060B060]
[A!8008304290601080B020A020]
[1020A06!6076001040B0407040]
`A!2000000000000000000000002000000070000000000000006000000020000000700000000000000060000000400000003000000000000000A000000000000000B000000000000000600000000000200000000000800000000000400000000000'
(2828B28482628684)
(826468486284<83>000)
10703090
B0<81>39B<81>0
703090B0
(1000828042408294)
(28B2849264A482B8)
(6276883244A82438)
(68B86818627682B8)
(4838149612986492)
(8438249242948672)
(681866A2881482B8)
(48B2429482B29486)
(82B8446860828492)
(843862B824924090)
`200000000000000000000000A0000000000000000000000040000000000000006!60000000700000000000000000000000000000000000000060000000A00000000000000000000000400000000000200000000000900000000000200000000000'
(4838261842762838)
(46A!20007020A46294)
(2834683428346294)
(2834683428348294)
(62B8629482942482)
(8482686294A48010)
(68102070627!4020<8B>0)
(24A04090249040A0)
(28B0403046A!80803!20)
(A2946!601084<83>82492)
(6434827284926276)
(829428B62!20<61>04802)
`600000000000000040000000000000008000000000000000200000000000000060000000000000002000000000000000800000000000000040000000000000006000000000000000400000000000800000000000200000000000800000000000'
`4000000000006000000000002000000000008000000000006!600000000000000000000000400000000000200000000000400000000000800000000000300000000000800000000000200000000000000060000000000000004000000000000000'
[902080208040304060802080]
`1000000000000000600000000000000040000000000000002!200000000000000000000000800000000000600000000000700000000000000020000000400000000000600000000000800000000000000020000000000000008000000000000000'
`100000000000000080000000000000002000000000000000400000000000000080000000000000002000000000000000B00000000000800000000000200000000000000000000000800000000000200000000000800000000000200000000000'
(943!3<83>6!607!77<61>01!119!9646)
(10649010A0B09070)
(10307!706237246828)
(B284826818628684)
(86826!602483864!4082)
(<8B>08!842076A!20846086)
`700000000000000000000000B!B00000000000000000000000B000000000000000000000009!900000000000000090000000B00000000000000000000000<27!7>00000000000000000000000<19!6>00000000000000000000000200000000000800000000000'
(<61>04!4680B27!80627084)
(A!20B!BB809!99B0<27!7>73!3348)
(102!268038B2862842)
(94A!A<83>4!403!33A0<49!9>97!7<81>64)
(9268286434827684)
(92B828B27684A!A000)
A1937!7070
10B3A19!90
9BA17!7007
B091AB<8!8B!B>0
<8B>A103090
(1000700068249010)
A37AB197
(B0A0B82834829!9091)
(A19!9009109A37B!B0BA)
(397!70073091<83>7<6!61!1>0<61>9)
{10000000300000009000000070000000A0000000402080607000300090001000}
{A000B000A00010009000A000B000A00080206040A00070003000400080002000}
(8482B82862868482)
(6262948284262864)
(8284928428248684)
(8268186286848268)
(2426186286848284)
(8268342624286848)
(6862768264246492)
(8462768438186286)
(8486726828642628)
(6286A48284248286)
(8462768428248242)
(86849242B2768428)
(2482B28482842824)
(2862768268286464)
(8284382484646482)
(6464826464643666)
(667!7<8B>66A!A<81>44443!3<83>88)
(881!1<81>88B!B<8B>88883!3<61>44)
(449!9<83>22B!B<8B>8888B070)
(30907010B0706666)
(66A!A<83>667!7<81>22229!9<8B>44)
(449!9<83>22B!B<8B>88886622)
(2222222222222222)
(223!63221!4122A!8A38B2)
(849246A6827642B8)
(2816283848168276)
(42B828B826728618)
(481628B262764276)
(2838481642B828B2)
(46A6827628182672)
(46A6827642762828)
(1064826424629!8040)
264!400426
{40000000600000002!20000000200060204!40008000<61>00000007000000000000000}
[B010A0B0309070A01090A030]
[70A0B0309070103090B010A0]
[703090B010A0B0A070B08280]
[4064208060208040209!900900]
[B09010A0B010A03090701070]
`3000000000000000B0000000000000007000000000000000600000004000000060000000400000008000000020000000600000004000000060000000400000008000000020000000B!B00000000000000000000000000000000000B00000000000'
[A0103070A0103090B010B0A0]
[30907010B0A070A0103090B0]
[10A0B0309070A0B010A01030]
[9070A0B0A0907030A0B010A0]
[70A0B03090B010A07030A070]
`30000000000000009000000000000000B000000000000000200000000000800000000000400000000000600000000000A00000000000000010000000000000007000000000000000300000000000000000000000000000000000000000000000'
[202040208040806020806080]
[402080<61>06020700020100000]
[<83>08080100060<83>00040<83>0A010]
[304020806020B03070A06040]
`200000000000000080000000000000006000000000000000<81>00000000000000040000000000000008000000000000000200000000000000020000000000000008000000000000000A!A00000000000000000000000000000000000A00000000000'
[<6!61!1>00<61>00686868242424828282]
[646464A01030B00000B01030]
[A010309070B01070A03090B0]
[10A0703090B010B0309070A0]
[7030A0703090B01070A07030]
[90B01070309070A030901070]
[103090B01070309070A01030]
`800000004000000060000000800000006000000040000000A0000000000000001000000000000000B0000000000000000000000000000000A0000000000000000000000000000000600000000000800000000000200000000000400000000000'
`800000000000200000000000400000000000200000000000900000000000000000000000000000000000000000000000B00000000000000000000000000000000000000000000000400000000000000020000000000000008000000000000000'
[608080100000608020402020]
`7000000000000000000000000000000060000000200000009000000000000000A0000000000000004000000000000000200000000000000000000000000000000000000000000000800000000000800000000000400000000000400000000000'
(8866A00066228844)
`300000000000000000000000000000000000000000000000400000000000400000000000800000000000800000000000200000000000200000000000600000000000600000000000700000000000000060000000200000006000000000000000'
[408280406020804040902020]
[806060702040208080106060]
[208080B02080604040902020]
`600000000000000040000000000000004000000000000000900000000000000020000000000000004000000000000000900000000000000000000000000000000000000000000000700000000000000000000000600000000000800000000000'
`20000000000040000000000080000000000020000000000090000000000000000000000000000000B000000000000000200000000000000080000000000000008000000000000000100000000000000060000000000000006000000000000000'
[208080304040206060702020]
[8!800080B000A0602020904040]
`600000000000000080000000000000008000000000000000300000000000000040000000000000004000000000000000600000000000200000000000800000000000400000000000600000000000000020000000000000008000000000000000'
[402860408040206060108080]
[204040308060802020904040]
[802020B08020406060108080]
`4000000000000000600000000000000060000000000000001000000000000000800000000000000060000000000000001!100000000000000000000000100000000000000000000000300000000000000000000000800000000000200000000000'
`80000000000040000000000020000000000080000000000030000000000000000000000000000000B000000000000000200000000000000080000000000000008000000000000000100000000000000060000000000000006000000000000000'
[208080304040206060702020]
[8!800080B000A0602020904040]
`600000000000000080000000000000008000000000000000300000000000000040000000000000004000000000000000300000000000000000000000000000000000000000000000600000000000800000000000600000000000800000000000'
(24249!900090000000)
;
#SINGLE:ANOTHER:11:
00008268
`600000000000000000000000400000000000000000000000800000000000000000000000200000000000000000000000600040000000000000000000800000000000000000000000400000000000000000000000200000000000000000000000'
{8000000060408020600000002000000040000000200000008000000040000000}
`800020000000000000000000600000000000000000000000200000000000000000000000800000000000000000000000400000000000800000000000200000000000600000000000400000000000200000000000800000000000400000000000'
86482642
`800060000000000000000000400000000000000000000000800000000000000000000000200000000000000000000000600000000000000000000000400000006000000020000000800000000000000000000000200000000000000000000000'
`800000000000000000000000400000000000000000000000800000000000000000000000600000000000000000000000200040000000000000000000800000000000000000000000400000000000000000000000200000000000000000000000'
(9!9009A!A00A1!10019!9009)
3!30408040
(8!8030B!B00B1!1010<8B!B>00B)
3!30408043
`<8!8B!B>00000000000000000000000000000000000000000000000800000000000000000000000800000002000000080000000200000000000000000000000000000000000000000000000800000000000000000000000000000000000B00000000000'
1!10806080
(6!6010A!A06A28424828)
(1!100080006!66008010)
`B!B00000000000000000000000000000000000000000000000000000000000000000000000200000008000B000200000008!800000000000000000000000000000000000000000000000400000000000000000000000800000000000000000000000'
(8888444422226666)
(8!8000008042864282)
(4!4040666622228888)
`4!400000000000000000000000000000000000000000000000400000000000000000000000800000000000400000000000600000002000000080000000400000002000000080000000600000004000000060000000400000006000000040000000'
(3!3030444422226666)
(2!2000002068246828)
(6!6006222244448888)
[B08280406020806020804020]
(9!9090444488882222)
`800000000000800000000000800000000000800000000000800000000000800000000000800000000000000000000000600000004000000060000000400000000000000000000000800000002000000080000000200000000000000000000000'
(B!B00B222244446666)
(8888826422222248)
(6666222288886666)
`400000000000400000000000400000000000400000000000400000000000400000000000400000000000000000000000600000004000000080000000200000006000000040000000800000002000000060000000400000008000000020000000'
`B!B0000000000000000000000000000000B000000000000000400000000000400000000000400000000000400000000000800000000000800000000000800000000000800000000000200000000000200000000000200000000000200000000000'
(6666662288888888)
(4444222266668888)
(4!4000004082468628)
(6!6006444466668888)
[802420806420804060206080]
(1!1010666622228888)
(4!4000004028624286)
(4!4004222288884444)
[408280406020806080402080]
[206060208040208040806020]
[806080402080606020100020]
[100000608080100060900040]
[30A010304080206020B03070]
[A06040208060408080206060]
`A!A00000000000000000000000000000000000A00000000000<6!61!1>00000000000000000000000<61>00000000000000000000000600000008000000060000000800000006000000080000000200000004000000020000000400000002000000040000000'
[828282646464A01030B00000]
[602080402080602080608040]
[208060202080404060200000]
[606020808040800020800000]
[402080208060208040804020]
[602080602080408020604020]
[406020846864A010B000A000]
(682482429000B000)
[402080608080100000608020]
[40202070006290A040200000]
(88448866A0006622)
(8844300044882266)
[706260408280406020804040]
[602020806060802040208080]
[406060208080402080604040]
[802020604040802040900000]
`000000000000000000000000600000000000800000000000200000000000400000000000800000000000200000000000900000000000000000000000000000000000000000000000200000000000000080000000000000008000000000000000'
[406060208080204040206060]
[8020208!800080000000602020]
`800000000000000040000000000000004000000000000000600000000000000080000000000000008000000000000000200000000000000040000000000000004000000000000000600000000000200000000000800000000000400000000000'
[602080402860408040206060]
[408080204040208060802020]
[604040802020608020406060]
[2080804060602080601!101000]
`000000000000000000000000400000000000200000000000800000000000600000000000200000000000800000000000100000000000000000000000000000000000000000000000800000000000000020000000000000002000000000000000'
[604040802020806060804040]
[2080802!200020000000602020]
[804040608080204040828284]
[2862846868681070A0B00000]
[408020608020408020402060]
[802040808020606040800000]
[404080202060200080200000]
[608020802040802060206080]
[408020408020602080406020]
[402060848268B0307000A000]
(682482429000B000)
[402080608080100000608020]
[40202070006290A040200000]
(88448866A0006622)
(8844300044882266)
[706260408280406020804040]
[602020806060802040208080]
[406060208080402080604040]
[802020604040802040900000]
[006020804620804060208080]
[406060208080204040206060]
[8020208!800080000000602020]
[804040608080204040626080]
[204080208040806080402020]
[806060408080406020604040]
[208080604040208060802020]
[4060608020204060207!707000]
`000000000000000000000000800000000000400000000000600000000000200000000000800000000000600000000000700000000000000000000000000000000000000000000000600000000000000040000000000000004000000000000000'
[208080604040602020608080]
[4060602!200200000000806060]
[402020804040806060200000]
(842828628482B000)
(8888444466662222)
`200000000000200000000000200000000000000000000000800000004000000080000000400000000000000000000000200000006000000020000000600000000000000000000000A!A00000000000000000000000000000000000A00000000000'
(6666444488884444)
(4268222222846666)
(2222888844442222)
`2000000000002000000000002000000000000000000000006000000080000000400000002000000060000000800000004000000020000000600000008000000040000000200000009!900000000000000000000000900000000000000000000000'
(2222666644446666)
(6622888888884444)
(2222666688884!4000)
(0040428628482!2002)
`600000000000600000000000600000000000600000000000800000000000800000000000800000000000800000000000400000000000400000000000400000000000400000000000400000000000000080000000200000008000000000000000'
[4028208060206040801!100100]
(4444888822226!6000)
(0060824284868!8008)
`400000000000400000000000400000000000400000000000800000000000800000000000800000000000800000000000600000000000600000000000600000000000600000000000600000000000000020000000400000008000000000000000'
[406080208060204020808080]
[8080802!200200404040404040]
`6!600000000000000000000000600000000000000000000000800000000000200000000000600000000000800000000000200000000000800000000000600000000000400000000000800000000000000080000000000000008000000000000000'
[8080804!400400606060606060]
[8!800800428060208040202020]
[2020206!600600404040404040]
`2!2000000000000000000000002000000000000000000000006000000020000000800000000000000060000000400000003000000000000000A000000000000000B000000000000000600000000000200000000000800000000000400000000000'
(2828628482628684)
(826468486284<83>000)
10703090
B0<81>39B<81>0
703090B0
(1000828042408284)
(2862848264248268)
(6286882244882428)
(6848684862868268)
(4828446622886482)
(8428248242848682)
(6828662288448268)
(4862428482628486)
(8268446860828462)
(8428626824824060)
`20000000000000000000000080000000000000000000000040000000000000006!60000000000000000000000000000000000000000000000060000000000000000000000000000000400000000000200000000000800000000000200000000000'
(4828262842862868)
(462!20000020046284)
(2864682428646284)
(2864682428648284)
(6268628482642482)
(8482686284248040)
642864!400
48462848
264248!882!2
(20646!600000602482)
(6424824284826286)
(828428662!20204802)
`600000000000000040000000000000008000000000000000200000000000000060000000000000002000000000000000800000000000000040000000000000006000000000000000400000000000800000000000200000000000800000000000'
`4000000000006000000000002000000000008000000000006!600000000000000000000000000000000000000000000000000000000000000000000000600000000000000000000000200000000000000060000000000000004000000000000000'
[602080608040204060202080]
[2060402!200000002000402080]
`400000000000000080000000000000002000000000000000400000000000000080000000000000002000000000000000600000000000800000000000200000000000000000000000400000000000200000000000800000000000200000000000'
(84286!6000604!448!8000)
0081AB97
(00307!700007006828)
(6284826848628684)
(86826!602483864!4000)
48!8082!2000
0B!BB9!99<27!7><76!6>0
64!4428!8008
(2!20B!BB009!9900<27!7>73!3340)
(802!20002042862842)
(86264!403!3300<49!9>97!7<81>64)
(8268286424828684)
(826828628684A!A000)
A1937!7070
10B3A19!90
9BA17!7007
B091AB<8!8B!B>0
<8B>A103090
(1000700068249010)
A37AB197
(B0A0B82864829!9091)
(A19!9009109A37B!B0BA)
(397!7007309137<6!61!1>0<61>9)
{10000000300000009000000070000000A0000000402080607000300090001000}
{A000B000A00010009000A000B000A00080206040A00070003000400080002000}
(8482682862868482)
(6262848284262864)
(8284828428248684)
(8268286286848268)
(2426286286848284)
(8268242624286848)
(6862868264242482)
(8462868428286286)
(8486826828642628)
(6286848284248286)
(8462868428248242)
(8684824262868428)
(2482428482842824)
(2862868268286464)
(8284282484646482)
(6464826464643666)
(667!7700A!AA44443!3388)
(881!1100B!BB88883!3344)
(449!9900B!BB8280B070)
(30907010B0706666)
(66A!AA007!7722229!9922)
(229!9900B!BB84802622)
(2222222222222222)
(223!33001!1100A!AA3862)
(8482462682864248)
(2846286848268286)
(4248284826828628)
(4826284262864286)
(2868482642482842)
(4626828628482642)
(4626828642462828)
(2064826424628!8040)
264!400426
{40000000600000002!20000000200060204!40008000<61>00000004000400040004000}
(8888222266664444)
`400000000000400000000000400000000000400000000000600000000000000080000000000000002000000000000000400000000000000020000000000000008000000000000000600000000000600000000000600000000000600000000000'
`200000000000200000000000200000000000200000000000800000000000800000000000800000000000800000000000400000000000400000000000400000000000400000000000400000000000000080000000200000008000000000000000'
[4064208060208040209!900900]
(4444888822228!8000)
`000000000000000000000000800000000000000000000000600000004000000060000000400000000000000000000000800000002000000080000000200000000000000000000000B!B00000000000000000000000000000000000B00000000000'
(2222888844446!6000)
(06286!600000604!4004)
(8888222266664!4000)
(0040682468286!6006)
(4444888822228!8000)
`0000000000008000000000002000000000006000000000004!400000000000800000000000200000000000B00000000000A00000000000000010000000000000007000000000000000300000000000000000000000000000000000000000000000'
[202040208040806020806080]
[402080606020700020100000]
[60808010006030004030A010]
[300000000000B03070A06040]
`200000000000000080000000000000006000000000000000800000000000000040000000000000008000000000000000200000000000000020000000000000008000000000000000A!A00000000000000000000000000000000000A00000000000'
[<6!61!1>00<61>00686868242424828282]
[646464A01030B00000602080]
[402080602080608040208060]
[202080404060200000606020]
[808040800020800000402080]
[208060208040804020602080]
[602080408020604020406020]
`800000004000000060000000800000006000000040000000A0000000000000001000000000000000B0000000000000000000000000000000A0000000000000000000000000000000600000000000800000000000200000000000400000000000'
`800000000000200000000000400000000000200000000000900000000000000000000000000000000000000000000000B00000000000000000000000000000000000000000000000400000000000000020000000000000008000000000000000'
[608080100000608020402020]
`7000000000000000000000000000000060000000200000009000000000000000A0000000000000004000000000000000200000000000000000000000000000000000000000000000800000000000800000000000400000000000400000000000'
(8866A00066228844)
`300000000000000000000000000000000000000000000000400000000000400000000000800000000000800000000000200000000000200000000000600000000000600000000000700000000000000060000000200000006000000000000000'
[408280406020804040602020]
[806060802040208080406060]
[208080402080604040802020]
`600000000000000040000000000000004000000000000000800000000000000020000000000000004000000000000000900000000000000000000000000000000000000000000000000000000000000000000000600000000000800000000000'
`200000000000400000000000800000000000200000000000900000000000000000000000000000000000000000000000200000000000000080000000000000008000000000000000400000000000000060000000000000006000000000000000'
[208080204040206060802020]
[8!800080000000602020804040]
`600000000000000080000000000000008000000000000000200000000000000040000000000000004000000000000000600000000000200000000000800000000000400000000000600000000000000020000000000000008000000000000000'
[402860408040206060408080]
[204040208060802020604040]
[802020608020406060208080]
`4000000000000000600000000000000060000000000000002000000000000000800000000000000060000000000000001!100000000000000000000000100000000000000000000000000000000000000000000000800000000000200000000000'
`800000000000400000000000200000000000800000000000300000000000000000000000000000000000000000000000200000000000000080000000000000008000000000000000400000000000000060000000000000006000000000000000'
[208080204040206060802020]
[8!800080000000602020804040]
`600000000000000080000000000000008000000000000000200000000000000040000000000000004000000000000000300000000000000000000000000000000000000000000000600000000000800000000000600000000000800000000000'
(24249!900090000000)
;
